• Кинопремия Золотой глобус (Golden Globe Award) в 2018 году


    73-я Церемония Вручения Премии Золотой Глобус 2016 / The 73rd Annual Golden Globe Awards 2016
    Дата/Год выпуска: 10.01.2016
    Страна: США
    Жанр: Церемония Награждения
    Продолжительность: 2:10:38
    Перевод: Отсутствует
    Русские субтитры: нет
    Оригинальная аудиодорожка: английский
    Телеканал: NBC
    Автор рипа 2Maverick
    Описание: 73-я церемония вручения наград премии «Золотой глобус» за заслуги в области кинематографа и телевидения за 2015 год состоялась 10 января 2016 года в отеле Беверли-Хилтон (Беверли-Хиллз, Лос-Анджелес, Калифорния). Номинанты были объявлены 10 декабря 2015 года.
    Церемония транслировалась в прямом эфире на канале NBC, её ведущим в четвёртый раз выступил британский комик Рики Джервейс. Почётная премия имени Сесиля Б. Де Милля за жизненные достижения в области кинематографа была вручена актёру Дензелу Вашингтону.
    качество:HDTVRip
    формат: MP4
    Видео: avc1, 720x364, 16:9, 29.970 fps
    Аудио: AAC, 160 Kbps, 48.0 KHz, 2 channels

    MediaInfo

    General
    Complete name The.73rd.Annual.Golden.Globe.Awards.(2016).Eng.Subs.SDTV.x264-[2Maverick]\The.73rd.Annual.Golden.Globe.Awards.(2016).Eng.Subs.SDTV.x264-[2Maverick].mp4
    Format : MPEG-4
    Format profile : Base Media
    Codec ID : isom (isom/iso2/avc1/mp41)
    File size : 970 MiB
    Duration : 2h 10mn
    Overall bit rate : 1 039 Kbps
    Writing application : Lavf54.63.104
    Video
    ID : 1
    Format : AVC
    Format/Info : Advanced Video Codec
    Format profile : Main@L4
    Format settings, CABAC : Yes
    Format settings, ReFrames : 4 frames
    Codec ID : avc1
    Codec ID/Info : Advanced Video Coding
    Duration : 2h 10mn
    Bit rate : 870 Kbps
    Width : 720 pixels
    Height : 364 pixels
    Display aspect ratio : 16:9
    Original display aspect ratio : 16:9
    Frame rate mode : Variable
    Frame rate : 29.970 (30000/1001) fps
    Minimum frame rate : 29.970 fps
    Maximum frame rate : 30.000 fps
    Color space : YUV
    Chroma subsampling : 4:2:0
    Bit depth : 8 bits
    Scan type : Progressive
    Bits/(PixelFrame) : 0.111
    Stream size : 813 MiB (84%)
    Color range : Limited
    Color primaries : BT.601 NTSC
    Transfer characteristics : BT.709
    Matrix coefficients : BT.601
    Audio
    ID : 2
    Format : AAC
    Format/Info : Advanced Audio Codec
    Format profile : LC
    Codec ID : 40
    Duration : 2h 10mn
    Duration_LastFrame : -21ms
    Bit rate mode : Constant
    Bit rate : 160 Kbps
    Channel(s) : 2 channels
    Channel positions : Front: L R
    Sampling кинопремия Золотой глобус (Golden Globe Award) в 2018 году rate : 48.0 KHz
    Frame rate : 46.875 fps (1024 spf)
    Compression mode : Lossy
    Stream size : 150 MiB (15%)
    Default : Yes
    Alternate group : 1

    Скриншоты


    Download

    Сайт не распространяет и не хранит электронные версии произведений, а лишь предоставляет доступ к создаваемому пользователями каталогу ссылок на торрент-файлы, году которые содержат только списки хеш-сумм


    Источник: http://RuTracker.org/forum/viewtopic.php?t=5148967



    Рекомендуем посмотреть ещё:


    Закрыть ... [X]

    Золотой глобус Википедия Чемпионат Англии по футболу 2018

    Кинопремия Золотой глобус (Golden Globe Award) в 2018 году Кинопремия Золотой глобус (Golden Globe Award) в 2018 году Кинопремия Золотой глобус (Golden Globe Award) в 2018 году Кинопремия Золотой глобус (Golden Globe Award) в 2018 году Кинопремия Золотой глобус (Golden Globe Award) в 2018 году Кинопремия Золотой глобус (Golden Globe Award) в 2018 году Кинопремия Золотой глобус (Golden Globe Award) в 2018 году Кинопремия Золотой глобус (Golden Globe Award) в 2018 году
    tulaschool65.ru